呆呆狐狸
超级版主

[合 集] [美国] [犯罪] [打包] [BT下载][丑闻/丑闻风暴 Scandal 第一至十二季][全12季打包][英语无字][MKV][1080P][片源]

-->


◎译  名 女作家与谋杀案 / 她书写谋杀 / 弗莱彻夫人谋杀案小说集 / 推理女神探

◎片  名 Murder, She Wrote

◎年  代 1984

◎产  地 美国

◎类  别 剧情 / 悬疑 / 犯罪

◎语  言 英语

◎上映日期 1984-09-30(美国)

◎IMDb评分 7.0/10 from 15606 users

◎IMDb链接 http://www.imdb.com/title/tt0086765

◎豆瓣评分 8.1/10 from 276 users

◎豆瓣链接 https://movie.douban.com/subject/2270091/

◎BT之家整理 http://8btbtt.com/ 

◎片  长 48分钟

◎导  演 Anthony Pullen Shaw / 沃尔特·杰拉曼 Walter Grauman

◎编  剧 Peter S. Fischer / Richard Levinson / William Link

◎主  演 安吉拉·兰斯伯瑞 Angela Lansbury

      威廉·温德姆 William Windom

      罗恩·马萨克 Ron Masak

      汤姆·博斯林 Tom Bosley




◎简  介  


  《女作家与谋杀案》是一部非常著名且持续时间很久的美国经典侦探剧集。这部剧集共12季264集,从1984年开始在美国CBS电视台一直播放至1996年,之后又于1997年至2003年间陆续推出四部电视电影。Angela Lansbury扮演主角推理小说家兼业余侦探Jessica Flectcher,她在50岁左右失去了丈夫, 却成为了一名非常成功的推理小说作家,并且没有让成功冲昏头脑,拒绝了声望和金钱的诱惑,住在缅因州一个叫Cabot Cove的安逸的沿海小镇,和自己的老朋友们保持来往。在大部分剧集里,Jessica总能卷入一些离奇谋杀案的调查。警察们总是把表面上看来嫌疑很大的人抓走,而Jessica却觉得凶手另有其人。通过向每个嫌疑人询问一些其他人都想不到的问题,她总能找到真正的凶手,并在每集最后五分钟与之对峙,通过自己的推理指出对方的罪行。一部分凶手能够在Jessica的劝解下主动坦白罪行并向警方自首,也有一部分凶手会试图杀人灭口,而这时埋伏在暗处的警方人员便会及时赶到,将凶手当场逮捕。


Video
ID : 1
Format : AVC
Format/Info : Advanced Video Codec
Format profile : [email protected]
Format settings : CABAC / 4 Ref Frames
Format settings, CABAC : Yes
Format settings, ReFrames : 4 frames
Codec ID : V_MPEG4/ISO/AVC
Duration : 46 min 52 s
Bit rate : 14.4 Mb/s
Width : 1 440 pixels
Height : 1 080 pixels
Display aspect ratio : 4:3
Frame rate mode : Constant
Frame rate : 23.976 (24000/1001) FPS
Color space : YUV
Chroma subsampling : 4:2:0
Bit depth : 8 bits
Scan type : Progressive
Bits/(Pixel*Frame) : 0.386
Stream size : 4.72 GiB (98%)
Default : Yes
Forced : No
Color range : Limited
Color primaries : BT.709
Transfer characteristics : BT.709
Matrix coefficients : BT.709

Audio
ID : 2
Format : E-AC-3
Format/Info : Enhanced AC-3
Commercial name : Dolby Digital Plus
Codec ID : A_EAC3
Duration : 46 min 52 s
Bit rate mode : Constant
Bit rate : 224 kb/s
Channel(s) : 2 channels
Channel layout : L R
Sampling rate : 48.0 kHz
Frame rate : 31.250 FPS (1536 SPF)
Compression mode : Lossy
Stream size : 75.1 MiB (2%)
Title : English
Language : English
Service kind : Complete Main
Default : Yes
Forced : No

Text
ID : 3
Format : UTF-8
Codec ID : S_TEXT/UTF8
Codec ID/Info : UTF-8 Plain Text
Duration : 46 min 16 s
Bit rate : 91 b/s
Count of elements : 838
Stream size : 30.9 KiB (0%)
Title : English [SDH]
Language : English
Default : No
Forced : No



#1楼
发帖时间:2019-03-11 20:18:06   |   回复数:2
911degrees
隐世仙人♂
非常感谢,谢谢分享
7天前 #2楼
awenlianzi
武林高手
标题和内容不一样
4天前 #3楼
游客组