假面舞者
一派掌门

[] [08.03][转帖][美国][剧情][豹][BD-RMVB/3.31G][中英字幕]

-->
[img=321,393 alt=]http://www.newmov.com/pic/divx/HD/2009/The.Leopard.1963.720p.BluRay.x264-CiNEFiLE.jpg[/img]

【影片原名】Il gattopardo
【外文别名】The Leopard (UK) (USA)
【中文译名】豹/浩气盖山河
【出品公司】1More Film
【出品年代】1963 年
【上映日期】1963年3月28日  意大利  
【影片级别】USAG               
【IMDB链接】http://www.imdb.com/title/tt0057091
【IMDB评分】8.0/10 (6,267 votes)
【国  家】意大利/法国
【类  别】剧情/历史/爱情/战争
【导  演】卢奇诺·维斯康蒂 Luchino Visconti
【主  演】克劳迪娅·卡汀娜 Claudia Cardinale....Angelica Sedara/Bertiana
      阿兰·德龙 Alain Delon....Tancredi Falconeri
      伯特·兰卡斯特 Burt Lancaster....Prince Don Fabrizio Salina
      保罗·斯陶帕 Paolo Stoppa....Don Calogero Sedara
      特伦斯·希尔 Terence Hill....Count Cavriaghi (as Mario Girotti)
      皮埃尔·克里蒙地 Pierre Clémenti....Francesco Paolo
      Rina Morelli ....Princess Maria Stella Salina
      Romolo Valli ....Father Pirrone
      Lucilla Morlacchi ....Concetta
      朱利安诺·基玛 Giuliano Gemma....Garibaldi's General
      Ida Galli ....Carolina
      奥塔维亚·皮科洛 Ottavia Piccolo....Caterina
      Carlo Valenzano ....Paolo
      Brook Fuller ....Little Prince
      Anna Maria Bottini ....Mademoiselle Dombreuil, the Governess
      Lola Braccini ....Donna Margherita
      Marino Masé ....Tutor (as Marino Mase')
      Howard Nelson Rubien ....Don Diego (as Howard N. Rubien)
      Tina Lattanzi
      Marcella Rovena

【内容简介】

影片以1860年意大利西西里一个贵族家族的衰落为背景,呈现出一个时代的风貌和潮流的变迁以及贵族制度的没落。萨利纳亲王一家原本过着平静的生活。但随着局势的急剧变化,亲王的外甥唐克雷迪投奔正在西西里登陆的青年意大利党人加里波军队。返回故里,唐克雷迪对市长塞达拉的女儿安杰莉卡一见钟情,两人情投意合,不久便订婚了。塞达拉答应给女儿一份丰富的嫁妆,这样便挽救了萨利纳即将衰败的家族,而塞达拉也因能跟大贵族攀亲而沾沾自喜。此后,西西里岛进行了全民投票,结果一致赞成归并意大利。都灵派来了使者,邀请萨利纳作为名门贵族的代表,参加议会工作,但被萨利纳拒绝了。新政府没有给这个沉睡了两千多年的岛屿带来任何变化,特别是加里波在战败后,巴勒莫上流社会的生活又恢复了旧貌,贵族们频频举行舞会,庆幸劫后余生。

幕后制作

《豹》(又名:《浩气盖山河》,1963)是意大利电影大师鲁奇诺•维斯康蒂(Luchino Visconti《魂断威尼斯》《纳粹狂魔》)导演的史诗巨片,此片更是他的代表作,曾获得1963年法国戛纳电影节金棕榈大奖。
  由伯特•兰卡斯特(Burt Lancaster)他曾分别获得过奥斯卡、戛纳电影节和柏林电影节的最佳男主角奖、阿兰•德龙(Alain Delon)和克劳迪娅•卡迪纳莱(Claudia Cardinale)等国际影坛知名巨星合演。影片以1860年意大利的西西里岛为背景,通过萨里纳亲王这个中心人物的心路历程,反映出面对风起云涌崭新时代的到来,身处翻天覆地的社会变革的浩荡潮流当中,原有权贵和贵族因此而没落这一无奈而必然的命运。本片出色地展现了浓郁的西西里乡土风情,细腻地了描绘当时贵族的奢华生活,反映出那个变迁的时代的特色和风貌,被称为是“一部上乘的意大利史诗壁画”。
  《豹》作为意大利新现实主义导演维斯康提的重要作品之一,在国际上享有很高的地位,正如意大利影评家隆多里尼所说:“《豹》是一幅上乘的(意大利)历史壁画。”。维斯康提通过萨利纳亲王家族的兴衰起伏,表达了自己对新旧交替的感怀,更表达出一种对于时间的无奈和宿命感。同时由于维斯康提本人身为贵族,因此影片也从其自身的经历出发,感慨了贵族阶级的灭亡,被国际影评人认为是他用心灵拍摄的大手笔影片。
最后一场豪华舞会,导演用长达一小时的篇幅来造成视觉上的震撼,以映衬萨里纳王子的孤独心境,那种对生命接近终点的无奈和对所属时代即将流逝的悲凉。本片乃导演对历史的沉思,是部长达三个多小时的史诗巨作,维斯康提将自己的现实心境(贵族后裔)带入这部家族兴衰史中,心同此景,造就一部伟大的作品。另外剧本有力度,表演有生气,主角配角均十分出色,德龙与卡汀娜的数个镜头都已成影史经典。本片获第16届戛纳电影节金棕榈大奖。

E:\压制MKV专用文件夹\豹£圣城打佛\bbs.cnscg.com 豹.mkv
   General
      Complete name : E:\压制MKV专用文件夹\豹£圣城打佛\bbs.cnscg.com 豹.mkv
      Format : Matroska
      File size : 3.31 GiB
      Duration : 3h 5mn
      Overall bit rate : 2 553 Kbps
      Encoded date : UTC 2010-08-03 11:33:43
      Writing application : mkvmerge v3.0.0 ('Hang up your Hang-Ups') 编译于 Dec 12 2009 15:20:35
      Writing library : libebml v0.7.9 + libmatroska v0.8.1
   Video #1
      ID : 1
      Format : AVC
      Format/Info : Advanced Video Codec
      Format profile : [email=High@L4.1]High@L4.1[/email]
      Format settings, CABAC : Yes
      Format settings, ReFrames : 4 frames
      Muxing mode : Container profile=Unknown@4.1
      Codec ID : V_MPEG4/ISO/AVC
      Duration : 3h 5mn
      Bit rate : 2 118 Kbps
      Nominal bit rate : 2 167 Kbps
      Width : 1 280 pixels
      Height : 720 pixels
      Display aspect ratio : 16:9
      Frame rate : 23.976 fps
      Resolution : 8 bits
      Colorimetry : 4:2:0
      Scan type : Progressive
      Bits/(Pixel*Frame) : 0.096
      Stream size : 2.75 GiB (83%)
      Writing library : x264 core 98 r1649 20cbe10
      Encoding settings : cabac=1 / ref=5 / deblock=1:-3:-2 / analyse=0x3:0x113 / me=umh / subme=8 / psy=1 / psy_rd=1.00:0.10 / mixed_ref=1 / me_range=32 / chroma_me=1 / trellis=2 / 8x8dct=1 / cqm=0 / deadznoe=21,11 / fast_pskip=0 / chroma_qp_offset=-2 / threads=6 / sliced_threads=0 / nr=0 / decimate=0 / interlaced=0 / cnostrained_intra=0 / bframes=3 / b_pyramid=1 / b_adapt=2 / b_bias=0 / direct=1 / weightb=1 / weightp=2 / keyint=250 / keyint_min=25 / scenecut=40 / intra_refresh=0 / rc_lookahead=40 / rc=2pass / mbtree=1 / bitrate=2167 / ratetol=1.0 / qcomp=0.60 / qpmin=10 / qpmax=51 / qpstep=4 / cplxblur=20.0 / qblur=0.5 / ip_ratio=1.40 / aq=1:1.00
      Language : English
   Audio #2
      ID : 2
      Format : AC-3
      Format/Info : Audio Coding 3
      Codec ID : A_AC3
      Duration : 3h 5mn
      Bit rate mode : Constant
      Bit rate : 384 Kbps
      Channel(s) : 1 channel
      Channel positions : C
      Sampling rate : 48.0 KHz
      Stream size : 510 MiB (15%)
   Text #3
      ID : 3
      Format : UTF-8
      Codec ID : S_TEXT/UTF8
      Codec ID/Info : UTF-8 Plain Text
      Title : 中文

[img=600,337 alt=]http://img.album.pchome.net/54/74/99/99/4a3bbafefc9348e6c7de0b858fcfc79a.JPG[/img]

[img=600,337 alt=]http://img.album.pchome.net/54/74/99/99/beeabda3124a35e2495a4ef443964514.JPG[/img]
#1楼
发帖时间:2010-08-04 08:52:47   |   回复数:19
xiaogaozi_001
江湖小虾
意大利新现实主义导演维斯康提的重要作品之一,在国际上享有很高的地位,正如意大利影评家隆多里尼所说:“《豹》是一幅上乘的(意大利)历史壁画。”。维斯康提通过萨利纳亲王家族的兴衰起伏,表达了自己对新旧交替的感怀,更表达出一种对于时间
2013-8-23 #2楼
xiaogaozi_001
江湖小虾
意大利新现实主义导演维斯康提的重要作品之一,在国际上享有很高的地位,正如意大利影评家隆多里尼所说:“《豹》是一幅上乘的(意大利)历史壁画。”。维斯康提通过萨利纳亲王家族的兴衰起伏,表达了自己对新旧交替的感怀,更表达出一种对于时间
2013-8-23 #3楼
casper0706
武林高手
意大利新现实主义导演维斯康提的重要作品之一,在国际上享有很高的地位,正如意大利影评家隆多里尼所说:“《豹》是一幅上乘的(意大利)历史壁画。”。维斯康提通过萨利纳亲王家族的兴衰起伏,表达了自己对新旧交替的感怀,更表达出一种对于时间
5月前
2014-2-13 #4楼
casper0706
武林高手
意大利新现实主义导演维斯康提的重要作品之一,在国际上享有很高的地位,正如意大利影评家隆多里尼所说:“《豹》是一幅上乘的(意大利)历史壁画。”。维斯康提通过萨利纳亲王家族的兴衰起伏,表达了自己对新旧交替的感怀,更表达出一种对于时间
5月前
2014-2-13 #5楼
游客组