假面舞者
一派掌门

[] [08.03][转帖][美国][剧情][迈阿密风云][BD-RMVB/2.6G][中英字幕]

-->
[img=386,497 alt=]http://images.blu-ray.com/movies/covers/832_front.jpg[/img]

◎ 中文译名  迈阿密风云 / 迈阿密风暴
◎ 影片原名  Miami Vice

◎ 出品公司  环球影业 Universal Pictures
◎ 上映地区  2006年07月28日 美国
◎ 拍摄国家  德国 / 美国
◎ 对白语言  英语 / 西班牙语
◎ 影片类别  动作 / 犯罪 / 剧情 / 惊怵
◎ 影片分级  Rated R for strong violence, language and some sexual content.
◎ IMDb评分 6.0/10  (51,176 votes)

◎ 影片时长  134 min | 140 min (unrated director's edition)
◎ 影片音轨  英文DTS 5.1 1536Kbps
◎ SP码率  x264 2pass 12268MBps

◎ 官方网站  http://www.miamivice.ru/
◎ IMDb链接 http://www.imdb.com/title/tt0430357/

◎ 导     演  迈克尔·曼 Michael Mann

◎ 编     剧  迈克尔·曼 Michael Mann   
                  安东尼·扬科维奇 Anthony Yerkovich   

◎ 主     演  柯林·法瑞尔 Colin Farrell
                  杰米·福克斯 Jamie Foxx
                  巩俐 Li Gong
                  娜奥梅·哈里斯 Naomie Harris
                  斯安·辛德斯 Ciarán Hinds
                  加斯丁·特奥克斯 Justin Theroux

◎ 剧情介绍

    毒品犯罪一直以来困扰着包括美国在内的世界很多国家。眼下,由于国际联合小组(JLATF)在工作上的失误,令一个特大贩毒团伙在眼皮底下溜走。联邦调查局(FBI)随即向迈阿密警方寻求援助,于是迈阿密派出了多位精明强乾的警探参与调查。其中,硬汉里卡多(杰米·福克斯)与网络专家特鲁迪·约普琳(纳奥米·哈里斯)组成一对情侣搭档,秘密探察通往南佛罗里达州的毒品要道,并负责查出与毒品走私相关谋杀案的幕后真凶。他们的同伴詹姆斯·科罗凯特(柯林·法瑞尔)则假扮成小毒贩,卧底到南佛罗里达州的一个贩毒团伙内。这个外号“索尼”的小子是一个聪明且有着迷人外表而又玩世不恭的警探。因此,在调查过程中不幸与性感女银行家身份出现伊莎贝拉(巩俐)坠入情网。

    事实上,这个亚裔女人是毒品走私集团幕后的第一头目,并且是远近闻名的大毒枭兼军火商蒙托亚(路易斯·多萨)的妻子,卧底爱黑帮女老大,这一无可回避的现实给整个案件的调查带来了空前的麻烦和危险。而且随着局势愈加严峻,身处两方敌对夹缝间的里卡多和索尼,对自己的卧底身份也越来越迷惑,索尼深陷与伊莎贝拉的情感纠葛中更是到了无法自拔的地步……

◎ 影片幕后

    二十二年前,电视剧《迈阿密风云》以紧凑的故事情节,正邪难辨的角色设置,以及紧张激烈的精彩动作场面,在众多的美国观众当中引起了轩然大波,成为电视剧集新一黄金时期的代表作。当时担任该剧执行制片人的迈克尔·曼还只能算是电视剧业中的小人物。不过此次创业的成功却给了他发挥自己创作才能的重要机会,他为其中的一季撰写的剧本经历为其后来扬名好莱坞更是打下了坚实的基础。这段难以忘怀的经历也在迈克尔·曼心中系上了挥之不去的情结。因此,在多年之后,迈克尔·曼毅然决定全心全力为自己的“迈阿密情结”圆上这个梦,将这段经典的“黑白故事”搬上大银幕,并亲自撰写剧本。当年的《迈阿密风云》之所以引起巨大轰动,很大程度上得益于八十年代毒品犯罪题材在影视界的盛行之风。

    在毒品犯罪题材在好莱坞堪称泛滥的今天,电影版《迈阿密风云》显然必须要在很多角度上有所改观才能有所新意有所突破,尤其是在故事的叙述重心上。对此,经验老道的迈克尔·曼自然早有准备。在剧本的改编过程中,他特意将故事的重点从毒品交易转为对卧底neimu的揭秘上。(这一点在几年前港人拍摄的《无间道》中取得的巨大成功便已经得到了验证)

    影片在故事上详细讲述了几位迈阿密警探的卧底经历,同时,作为美国本土48个州中最南端的大城市——迈阿密这一特殊的背景本身就有着历久不衰的独特黑色魅力,因此迈克尔·曼充分利用这一优势,烘托出题材的鲜明特点。为了准确无误的掌控影片中可能出现的大场面并鲜活地表达出其独具的异域风情。迈克尔·曼还专程到多米尼加、巴拉圭、乌拉圭等拉丁国家取景,虽然耗资不菲,但对细节的严谨与苛求,对影片更趋于完美的表现却有着相当重要的作用。

◎ 影片花絮

    1.25亿美元的巨额投资在影片的预算日益膨胀的好莱坞似乎已经很难在激起人们的好奇和强烈的兴趣了。但作为一部并非依靠绚丽的电脑特级说话的犯罪剧情片来说,着实不是个小数字(尽管演员表当中罗列了影帝、明星等大牌人物)。但值得注意的是,在“漫长”的好莱坞暑期档当中,除了地位特殊的几部三维动画,除了像《X战警3》、《超人归来》、《加勒比海盗2》等一乾有前作保障的续集之外,似乎只有这部《迈阿密风云》堪称是一部完完全全的“新科”商业大片了。

    迈克尔·曼自从人电视转战电影业以来,一直能在艺术与商业中寻求平衡,但其在投资上大手大脚的狂放作风,却经常为自己带来很高的商业风险。事实证明,其商业电影之路以及市场回报律也呈现出相当不稳定的局面:例如,早年间令他一鸣惊人的《盗火线》,为其在世界市场赚得一亿有余;而后来全力打造的且被业内外一致看好的《拳王阿里》,却意外兵败滑铁卢,将先前赚得的大把黄白之物赔得一乾二净;继相对低调却反而大获成功的《借刀杀人》之后,迈克尔·曼又在本片中恢复了一掷千金的豪迈作风,担着如此巨大的风险,影片显然必须有高人一等的绝活儿才能突出重围,深谙商业之道的迈克尔·曼,这次将宝押在了火爆场面的营造上。迈克尔·曼本片延续了他在《盗火线》、《借刀杀人》中营造紧张气氛的非凡功力,动作设计方面偏向简单粗暴,剧情发展则走间接路线。影片的动作场面非常惊险,其中有一段杰米·福克斯把众匪徒踢下飞驰的货车的场景,为了令演员们动作到位、视觉效果强烈,迈克尔·曼费大量时间,描画了数量庞大的故事版。为了令影片画面更具真实感,迈克尔还特地请来20余位专业人员作现场咨询,其中包括警官、烟酒专家、武器专家、特殊药品管理局工作人员等,坚决杜绝一切常识或非常识错误的发生,方方面面考虑之周道令人不得不赞叹:迈克尔·曼确实宝刀不老。

E:\压制MKV专用文件夹\迈阿密风云£圣城打佛\bbs.cnscg.com 迈阿密风云.mkv
   General
      Complete name : E:\压制MKV专用文件夹\迈阿密风云£圣城打佛\bbs.cnscg.com 迈阿密风云.mkv
      Format : Matroska
      File size : 2.60 GiB
      Duration : 2h 19mn
      Overall bit rate : 2 670 Kbps
      Encoded date : UTC 2010-08-03 12:55:07
      Writing application : mkvmerge v3.0.0 ('Hang up your Hang-Ups') 编译于 Dec 12 2009 15:20:35
      Writing library : libebml v0.7.9 + libmatroska v0.8.1
   Video #1
      ID : 1
      Format : AVC
      Format/Info : Advanced Video Codec
      Format profile : [[email protected]][email protected][/email]
      Format settings, CABAC : Yes
      Format settings, ReFrames : 4 frames
      Muxing mode : Container [email protected]
      Codec ID : V_MPEG4/ISO/AVC
      Duration : 2h 19mn
      Bit rate : 2 168 Kbps
      Nominal bit rate : 2 222 Kbps
      Width : 1 280 pixels
      Height : 720 pixels
      Display aspect ratio : 16:9
      Frame rate : 23.976 fps
      Resolution : 8 bits
      Colorimetry : 4:2:0
      Scan type : Progressive
      Bits/(Pixel*Frame) : 0.098
      Stream size : 2.11 GiB (81%)
      Writing library : x264 core 98 r1649 20cbe10
      Encoding settings : cabac=1 / ref=5 / deblock=1:-3:-2 / analyse=0x3:0x113 / me=umh / subme=8 / psy=1 / psy_rd=1.00:0.10 / mixed_ref=1 / me_range=32 / chroma_me=1 / trellis=2 / 8x8dct=1 / cqm=0 / deadznoe=21,11 / fast_pskip=0 / chroma_qp_offset=-2 / threads=6 / sliced_threads=0 / nr=0 / decimate=0 / interlaced=0 / cnostrained_intra=0 / bframes=3 / b_pyramid=1 / b_adapt=2 / b_bias=0 / direct=1 / weightb=1 / weightp=2 / keyint=250 / keyint_min=25 / scenecut=40 / intra_refresh=0 / rc_lookahead=40 / rc=2pass / mbtree=1 / bitrate=2222 / ratetol=1.0 / qcomp=0.60 / qpmin=10 / qpmax=51 / qpstep=4 / cplxblur=20.0 / qblur=0.5 / ip_ratio=1.40 / aq=1:1.00
      Language : English
   Audio #2
      ID : 2
      Format : AC-3
      Format/Info : Audio Coding 3
      Codec ID : A_AC3
      Duration : 2h 19mn
      Bit rate mode : Constant
      Bit rate : 448 Kbps
      Channel(s) : 6 channels
      Channel positions : Front: L C R, Surround: L R, LFE
      Sampling rate : 48.0 KHz
      Stream size : 446 MiB (17%)
   Text #3
      ID : 3
      Format : SSA
      Codec ID : S_TEXT/SSA
      Codec ID/Info : Sub Station Alpha
      Title : 上中下英
   Text #4
      ID : 4
      Format : SSA
      Codec ID : S_TEXT/SSA
      Codec ID/Info : Sub Station Alpha
      Title : 上英下中
   Text #5
      ID : 5
      Format : UTF-8
      Codec ID : S_TEXT/UTF8
      Codec ID/Info : UTF-8 Plain Text
      Title : 中文
   Text #6
      ID : 6
      Format : UTF-8
      Codec ID : S_TEXT/UTF8
      Codec ID/Info : UTF-8 Plain Text
      Title : 英文

[img=600,337 alt=]http://img.album.pchome.net/54/74/99/99/9a79f1f20569d8c801bc05f564dc16bc.JPG[/img]

[img=600,337 alt=]http://img.album.pchome.net/54/74/99/99/b90ff0530fa4cd54c28bd5c0b0be1d31.JPG[/img]
#1楼
发帖时间:2010-08-04 08:54:29   |   回复数:15
dengguoquan
武林高手
找了好久都么U有,现在终于haodao le .
2013-12-8 #2楼
feitu87
江湖小虾
恩恩 好电影。。
2013-12-21 #3楼
dengguoquan
武林高手
haokoiojcvdoijgvfopjpos
2014-7-16 #4楼
游客组