假面舞者
一派掌门

[] [08.03][转帖][美国][剧情][陷入困境][BD-RMVB/1.8G][中英字幕]

-->
[img=477,600 alt=]http://rbkr5w.bay.livefilestore.com/y1pdojSK9aiX89EqL2E4WeiFaeYmrWWbvhf8aK64SmiYkzOTUG8e-8-Sxj7Fjxyi-tgzWJbc4bYvZ2jJWDBew7A_jAFZdmTI3jD/bbs.cnscg.com%40%E9%99%B7%E5%85%A5%E5%9B%B0%E5%A2%83.jpg?psid=1[/img]
【译  名】陷入困境
【片  名】Caught in the Crossfire
【年  代】2010
【国  家】美国
【类  别】犯罪
【语  言】英语
【IMDB评分】(awaiting 5 votes)
【IMDB链接】http://www.imdb.com/title/tt1449379
【片  长】84 Mins
【导  演】Brian A Miller
【主  演】50分 50 Cent ....Tino
      克里斯·克莱因 Chris Klein ....Briggs
      克里斯蒂娜·拉金 Christine Lakin ....Tracy
      亚当·罗德里格兹 Adam Rodriguez ....Shepherd
      理查德·琼斯 Richard T. Jones ....Captain Emmett
      Alyssa Julya Smith ....Sarah Jackson
      Brian A Miller ....A.D.A. Kevin Andrews
      莱勒·坎诺斯 Lyle Kanouse ....Detective Evans
      Tim Fields ....Lerner
      Sydney Hall ....Michael Pips
      Michael Matthias ....Lieutenant Michaels
      R.D. Miller Jr. ....Benton
      Jason Ambrose ....Cominsky
      Roy Oraschin ....Johnson
      Kurt Race ....Andre Cruz
      

【简  介】

两名侦探正在调查一起牵扯帮派的犯罪案件,他俩发现自己成了两方帮派共同的目标,几个不老实的警察也盯上了他俩。

Two detectives investigating a gang-related crime find themselves targeted by both gang members and crooked cops.   F:\MKV\成品\陷入困境£圣城RiYoo.归来\陷入困境Caught.in.the.crossfire.2010.BluRay.720p.AC3.x264-CnSCG.mkv
  General
    Complete name : F:\MKV\成品\陷入困境£圣城RiYoo.归来\陷入困境Caught.in.the.crossfire.2010.BluRay.720p.AC3.x264-CnSCG.mkv
    Format : Matroska
    File size : 1.80 GiB
    Duration : 1h 24mn
    Overall bit rate : 3 042 Kbps
    Encoded date : UTC 2010-08-03 13:40:49
    Writing application : mkvmerge v2.2.0 ('Turn It On Again') built on Mar  4 2008 12:58:26
    Writing library : libebml v0.7.7 + libmatroska v0.8.1
  Video #1
    ID : 1
    Format : AVC
    Format/Info : Advanced Video Codec
    Format profile : [email=High@L4.1]High@L4.1[/email]
    Format settings, CABAC : Yes
    Format settings, ReFrames : 4 frames
    Muxing mode : Container profile=Unknown@4.1
    Codec ID : V_MPEG4/ISO/AVC
    Duration : 1h 24mn
    Bit rate : 2 534 Kbps
    Nominal bit rate : 2 592 Kbps
    Width : 1 280 pixels
    Height : 720 pixels
    Display aspect ratio : 16:9
    Frame rate : 23.976 fps
    Resolution : 8 bits
    Colorimetry : 4:2:0
    Scan type : Progressive
    Bits/(Pixel*Frame) : 0.115
    Stream size : 1.50 GiB (83%)
    Writing library : x264 core 100 r1659 57b2e56
    Encoding settings : cabac=1 / ref=3 / deblock=1:-3:-2 / analyse=0x3:0x113 / me=umh / subme=8 / psy=1 / psy_rd=1.00:0.00 / mixed_ref=0 / me_range=32 / chroma_me=1 / trellis=2 / 8x8dct=1 / cqm=0 / deadznoe=21,11 / fast_pskip=0 / chroma_qp_offset=-2 / threads=6 / sliced_threads=0 / nr=0 / decimate=0 / interlaced=0 / cnostrained_intra=0 / bframes=8 / b_pyramid=2 / b_adapt=2 / b_bias=0 / direct=3 / weightb=1 / open_gop=0 / weightp=2 / keyint=250 / keyint_min=25 / scenecut=40 / intra_refresh=0 / rc_lookahead=40 / rc=2pass / mbtree=1 / bitrate=2592 / ratetol=1.0 / qcomp=0.60 / qpmin=10 / qpmax=51 / qpstep=4 / cplxblur=20.0 / qblur=0.5 / ip_ratio=1.40 / aq=1:1.00
    Language : English
  Audio #2
    ID : 2
    Format : AC-3
    Format/Info : Audio Coding 3
    Codec ID : A_AC3
    Duration : 1h 24mn
    Bit rate mode : Constant
    Bit rate : 448 Kbps
    Channel(s) : 6 channels
    Channel positions : Front: L C R, Surround: L R, LFE
    Sampling rate : 48.0 KHz
    Stream size : 271 MiB (15%)
  Text #3
    ID : 3
    Format : SSA
    Codec ID : S_TEXT/SSA
    Codec ID/Info : Sub Station Alpha
    Title : 中上英下
  Text #4
    ID : 4
    Format : SSA
    Codec ID : S_TEXT/SSA
    Codec ID/Info : Sub Station Alpha
    Title : 英上中下
  Text #5
    ID : 5
    Format : SSA
    Codec ID : S_TEXT/SSA
    Codec ID/Info : Sub Station Alpha
    Title : 中文简体
  Text #6
    ID : 6
    Format : SSA
    Codec ID : S_TEXT/SSA
    Codec ID/Info : Sub Station Alpha
    Title : 英文
[img=600,337 alt=]http://public.bay.livefilestore.com/y1pwgCFOI8forrfUvK6UNdjJvDA4cquDqSNJ-V-8ApeAjNuHn7Z-lVwfs0ApirgsXM5tS8oB3RcmtwtperEuvTkjg/bbs.cnscg.com%40%E9%99%B7%E5%85%A5%E5%9B%B0%E5%A2%83b.jpg?psid=1[/img]

[img=600,337 alt=]http://public.bay.livefilestore.com/y1pp2mVIwo4XJIxtmjz-mGrO--5AaBXxcZMzC7F_FyzBKfHysceWhD40tpcEmKcPAEaGWyYaLMBj9WAMONnMFIY8Q/bbs.cnscg.com%40%E9%99%B7%E5%85%A5%E5%9B%B0%E5%A2%83a.jpg?psid=1[/img]
#1楼
发帖时间:2010-08-04 08:59:03   |   回复数:11
游客组