假面舞者
武林高手

[] [09.29][转帖][美国][剧情][飞越疯人院][BD-RMVB/4.37G][中英字幕]

-->
使用“飞越疯人院35周年终极收藏版”蓝光圆盘压制。适当提高些码率,对得起经典
[img=500,623 alt=]http://www.maybii.info/image-00D7_4C9DED7A.jpg[/img]

【原 片 名】One Flew Over the Cuckoo's Nest
【中 文 名】飞越疯人院
【出品年代】1975年11月19日
【MPAA级别】R 级
【IMDB链接】http://www.imdb.com/title/tt0073486/
【IMDB评分】8.8/10 (62,373 votes) top 250: #12
【字  幕】中英
【国  家】美国
【类  别】剧情 / 喜剧
【导  演】米洛斯 福曼 (Milos forman)
【主  演】杰克 尼科尔森 (Jack Nicholson)
      路易丝 弗莱彻 (Louise Fletcher)
      威廉 雷德菲尔德 (William Redfield)
【分  级】瑞典:15 澳大利亚:M 芬兰:K-16 挪威:16 英国:18 法国:U 阿根廷:16 挪威:15

【剧情简介】

  麦克墨菲为逃避苦役而假装神经失常,可没想到却被送进了一家精神病院进行观察。护士长拉契特在这所医院里建立了一套行为准则,所有的病人都必须遵守。麦克墨菲不像别的病人那样逆来顺受,他不时地嘲讽护士长,还要求护士长把刺耳的音乐声放低。他还通过与病人们打牌、打篮球、说俏皮话使精神病院有了一丝生气,病人们在他的感染下渐渐开始有了自己的主张,但这一切却使护士长对麦克墨菲极为不满。麦克墨菲鼓动病人们要求看电视中的球赛转播,护士长却说医院的制度不允许这样做,后来她又假装民主,提出用手表决的方式来决定。不少病人在麦克墨菲的鼓动下纷纷举起了手,身材高大、被称为“酋长”的印第安人在举起手后使同意的人超过了半数,但护士长却仍拒不打开电视机。麦克墨菲只好自己假扮球赛解说员向病人们解说一场并不存在的球赛。病人们越来越喜欢麦克墨菲,并随他一起外出游玩。护士长找了一个机会侮辱了一个病人,致使这个病人割腕自杀,麦克墨菲见状大怒,与护士长扭打了起来。护士长对麦克墨菲下了毒手,切除了他的脑白质,使他变成了白*痴。曾与麦克墨菲一同商讨逃往自由之乡的酋长不忍心让病人们看到他们心中自由代言人的下场,结束了麦克墨菲的生命,然后砸开铁窗,逃离了这所疯人院...

【影评】
影片取材于肯·凯西的小说,讲述的是被社会抛弃的人们的反抗斗争,讽刺了西方社会的非人性化。影片着力刻画了精神病人的黑暗生活和悲惨境遇,作为精神病院非人性体制的卫道士的医生的铁石心肠和冷酷无情,以及精神病院中"病人"对传统和体制的反抗。
  影片作风和立意都是十分严肃的,但观众的反应却是喧哗和幼稚的,他们粗俗浅薄的欢呼和掌声,不应该是对这一部电影的奖赏。虽然影片的情节过于纷繁复杂,但它仍然是一部精彩纷呈的佳作。尤其是在台词方面,导演和编剧做了很多努力,许多对白至今都还是脍炙人口的经典之作。
  本片可说是反映当时嬉皮文化、反政府体制之时代思潮的作品,导演则以温和保守的叙事形式处理具高度批判性的严肃主题,达到雅俗共赏之效。
  本片荣获48届奥斯卡最佳影片、导演、改编剧本、男主角、女主角。

D:\飞越疯人院.mkv
   General
      Complete name : D:\飞越疯人院.mkv
      Format : Matroska
      File size : 4.37 GiB
      Duration : 2h 13mn
      Overall bit rate : 4 679 Kbps
      Encoded date : UTC 2010-09-28 08:19:15
      Writing application : mkvmerge v2.9.8 ('C'est le bon') built on Aug 13 2009 12:49:06
      Writing library : libebml v0.7.7 + libmatroska v0.8.1
   Video #1
      ID : 1
      Format : AVC
      Format/Info : Advanced Video Codec
      Format profile : [[email protected]][email protected][/email]
      Format settings, CABAC : Yes
      Format settings, ReFrames : 7 frames
      Muxing mode : Container [email protected]
      Codec ID : V_MPEG4/ISO/AVC
      Duration : 2h 13mn
      Bit rate : 3 946 Kbps
      Nominal bit rate : 4 040 Kbps
      Width : 1 280 pixels
      Height : 720 pixels
      Display aspect ratio : 16:9
      Frame rate : 23.976 fps
      Resolution : 8 bits
      Colorimetry : 4:2:0
      Scan type : Progressive
      Bits/(Pixel*Frame) : 0.179
      Stream size : 3.68 GiB (84%)
      Writing library : x264 core 98 r1649 c54c47d
      Encoding settings : cabac=1 / ref=8 / deblock=1:-3:-3 / analyse=0x3:0x113 / me=umh / subme=10 / psy=1 / psy_rd=1.00:0.10 / mixed_ref=1 / me_range=32 / chroma_me=1 / trellis=2 / 8x8dct=1 / cqm=0 / deadznoe=21,11 / fast_pskip=0 / chroma_qp_offset=-2 / threads=6 / sliced_threads=0 / nr=0 / decimate=0 / interlaced=0 / cnostrained_intra=0 / bframes=3 / b_pyramid=1 / b_adapt=2 / b_bias=0 / direct=1 / weightb=1 / weightp=2 / keyint=250 / keyint_min=25 / scenecut=40 / intra_refresh=0 / rc_lookahead=40 / rc=2pass / mbtree=1 / bitrate=4040 / ratetol=1.0 / qcomp=0.60 / qpmin=10 / qpmax=51 / qpstep=4 / cplxblur=20.0 / qblur=0.5 / ip_ratio=1.40 / aq=1:1.00
      Language : English
   Audio #2
      ID : 2
      Format : AC-3
      Format/Info : Audio Coding 3
      Codec ID : A_AC3
      Duration : 2h 13mn
      Bit rate mode : Constant
      Bit rate : 640 Kbps
      Channel(s) : 6 channels
      Channel positions : Front: L C R, Surround: L R, LFE
      Sampling rate : 48.0 KHz
      Stream size : 612 MiB (14%)
   Text #3
      ID : 3
      Format : SSA
      Codec ID : S_TEXT/SSA
      Codec ID/Info : Sub Station Alpha
      Title : 上中下英
   Text #4
      ID : 4
      Format : SSA
      Codec ID : S_TEXT/SSA
      Codec ID/Info : Sub Station Alpha
      Title : 上英下中
   Text #5
      ID : 5
      Format : UTF-8
      Codec ID : S_TEXT/UTF8
      Codec ID/Info : UTF-8 Plain Text
      Title : 中文
   Text #6
      ID : 6
      Format : UTF-8
      Codec ID : S_TEXT/UTF8
      Codec ID/Info : UTF-8 Plain Text
      Title : 英文

[img=600,337 alt=]http://img.album.pchome.net/54/79/79/25/0cd034522b81bd1ec32a9d194618dfa3.JPG[/img]

[img=600,337 alt=]http://img.album.pchome.net/54/79/79/25/de1df3e0ddfd348e5d87ced9a00c3b31.JPG[/img]
#1楼
发帖时间:2010-09-29 15:27:27   |   回复数:11
jinchangcheng
小有名气
支持发片
谢谢分享
2010-9-29 #2楼
穿过骨头抚摩你
江湖小虾
沙发·······
2010-9-29 #3楼
cgq21566
一代宗师
,感谢分享。
2010-9-29 #4楼
ganyumazhang
一派掌门
支持,谢谢分享。
2010-9-29 #5楼
gyjpy
一派掌门
支持,谢谢分享。
2010-9-29 #6楼
wuhulee
小有名气
我们也需要逃离砖政体质
2010-9-30 #7楼
归阁家居
武林高手
支持,谢谢分享。
2010-9-30 #8楼
qwer88
武林高手
支持,谢谢分享。
2010-10-2 #9楼
yulaoma
小有名气
太經典囉
得獎影片果真有氣勢
值得珍藏的
謝謝分享
2010-10-2 #10楼
d13529218849
江湖小虾
好帖呀!楼主辛苦了!
2011-10-29 #11楼
赤水蛟龙
江湖小虾
我怎么看不到呢?
2013-8-2 #12楼
游客组