HELLO小虾
版主

[科幻] [] [2012][美国][恐怖][笑脸杀手][HDRiP/1.38G][英语无字]

-->



◎译  名 笑脸杀手
◎片  名 Smiley
◎年  代 2012
◎国  家 美国
◎类  别 惊悚/剧情/恐怖   
◎语  言 英语
◎字  幕 N/A
◎IMDB评分 N/A
◎IMDB链接 http://www.imdb.com/title/tt2025667/
◎文件格式 XviD + AC3
◎视频尺寸 720 x 384
◎文件大小 1CD 1.36 GiB
◎片  长 94 Mins
◎导  演 Michael J. Gallagher
◎主  演 凯特琳·杰拉德 Caitlin Gerard  ....Ashley
      Melanie Papalia  ....Proxy
      Shane Dawson  ....Binder
      安德鲁·詹姆斯·艾伦 Andrew James Allen  ....Zane
      罗杰·巴特 Roger Bart  ....Professor Clayton
      凯斯·大卫 Keith David  ....Diamond
      Toby Turner  ....Mark
      Michael Traynor  ....Smiley
      Liza Weil  ....Dr. Jenkins
      Jana Winternitz  ....Maria
      Nikki Limo  ....Stacy
      Richard Ryan  ....Kells
      Jason Horton  ....Flasher
      Elizabeth Greer  ....Mom
      Patrick O'Sullivan  ....Cooper
      Darrien Skylar  ....Mary
      Bree Essrig  ....Kim
      Snake  ....Engineer (as Snake)
      Billy St. John  ....Dad
      BreeLayne Ring  ....Classmate / friend
      Kai De Mello-Folsom  ....Classmate
      Richard Taylor II  ....Partying Friend
      Laloni Harris  ....University Student / Party Guest
      Sarah Danielle Spears  ....Classmate
      Annie Chernecky  ....Classmate (uncredited
      Shanna Malcolm  ....Party guest (uncredited)
      
      

◎简  介 

  After learning of an urban legend in which a demented serial killer named SMILEY can be summoned through the Internet, mentally fragile Ashley must decide whether she is losing her mind or becoming Smiley's next victim.[code]Smiley.2012.HDRiP.AC3-2.0.XviD-AXED

POSTER:

IMDB:
http://www.imdb.com/title/tt2025667/

PLOT INFO:
After learning of an urban legend in which a demented serial killer named SMILEY can be summoned through the Internet, mentally fragile Ashley must decide whether she is losing her mind or becoming Smiley's next victim.

MEDIAINFO:
General
Complete name                            : Smiley.2012.HDRiP.AC3-2.0.XviD-AXED.avi
Format                                   : AVI
Format/Info                              : Audio Video Interleave
File size                                : 1.36 GiB
Duration                                 : 1h 34mn
Overall bit rate                         : 2 050 Kbps

Video
ID                                       : 0
Format                                   : MPEG-4 Visual
Format profile                           : Advanced Simple@L5
Format settings, BVOP                    : 2
Format settings, QPel                    : No
Format settings, GMC                     : No warppoints
Format settings, Matrix                  : Default (H.263)
Muxing mode                              : Packed bitstream
Codec ID                                 : XVID
Codec ID/Hint                            : XviD
Duration                                 : 1h 34mn
Bit rate                                 : 1 851 Kbps
Width                                    : 720 pixels
Height                                   : 384 pixels
Display aspect ratio                     : 1.85:1
Frame rate                               : 23.976 fps
Color space                              : YUV
Chroma subsampling                       : 4:2:0
Bit depth                                : 8 bits
Scan type                                : Progressive
Compression mode                         : Lossy
Bits/(Pixel*Frame)                       : 0.279
Stream size                              : 1.23 GiB (90%)
Writing library                          : XviD 64

Audio
ID                                       : 1
Format                                   : AC-3
Format/Info                              : Audio Coding 3
Mode extension                           : CM (complete main)
Format settings, Endianness              : Big
Codec ID                                 : 2000
Duration                                 : 1h 34mn
Bit rate mode                            : Constant
Bit rate                                 : 192 Kbps
Channel(s)                               : 2 channels
Channel positions                        : Front: L R
Sampling rate                            : 44.1 KHz
Bit depth                                : 16 bits
Compression mode                         : Lossy
Stream size                              : 130 MiB (9%)
Alignment                                : Aligned on interleaves
Interleave, duration                     : 70 ms (1.67 video frames)
Interleave, preload duration             : 208 ms
Title                                    : smiley

SOURCE:
720p Super Secret Source

NOTES:
October has begun, pretty much our favorite month of the year here at AXED, and to kick it off we bring you a very special treat! A nice encode from an HD source of the new horror film 'Smiley' that hit's theatres on Oct 12!

P.S.
Just to note since apparently a PG-13 & an R Rated cut for this movie were both produced, this is the uncut R Rated version!

AXED! - The only name to trust for VOD/HDRiP![/code]SCREENS:






1 个附件 售价 大小 下载 时间

Smiley.2012.HDRiP.AC3-2.0.XviD-AXED.torrent 0 金币 14.95K 761 次 2012-10-3

#1楼
发帖时间:2012-10-03 15:17:47   |   回复数:6
741013
超凡入圣№
感谢楼主分享!支持!
2012-10-3 #2楼
谢谢楼主分享
2012-10-3 #3楼
061035
武林高手
谢谢楼主分享!!!!
2012-10-4 #4楼
737800
小有名气
小成本的影片,能有多恐怖呢。
2012-10-5 #5楼
handsome_456
武林盟主
感谢楼主分享。。。
2012-10-6 #6楼
zhao_paul
一代宗师
感谢楼主分享《笑脸杀手》!
8月前 #7楼
游客组