大尾巴鱼
武林盟主

[2016] [欧美] [剧情] [BT下载][藩篱/篱笆内的风暴][DVDSCR-AVI/2.09G][英语无字]

-->

◎译  名 藩篱/篱笆内的风暴(台)

◎片  名 Fences

◎年  代 2016

◎国  家 美国

◎类  别 剧情

◎语  言 英语

◎上映日期 2016-12-16(美国)

◎IMDb评分  8.0/10 from 3,359 users

◎IMDb链接  http://www.imdb.com/title/tt2671706/

◎豆瓣评分 7.1/10 from 67 users

◎豆瓣链接 https://movie.douban.com/subject/21339682/

◎片  长 138分钟

◎导  演 丹泽尔·华盛顿 Denzel Washington

◎主  演 丹泽尔·华盛顿 Denzel Washington

      维奥拉·戴维斯 Viola Davis

      斯蒂芬·亨德森 Stephen Henderson

      约翰·艾德坡 Jovan Adepo

      罗素·霍恩斯比 Russell Hornsby

      麦凯尔泰·威廉逊 Mykelti Williamson

      萨尼雅·西德尼 Saniyya Sidney

      克里斯托弗·米勒 Christopher Mele

      莱斯莉·布恩 Lesley Boone

      杰森·斯维斯 Jason Silvis


◎简  介


  丹泽尔·华盛顿将把自己2010年出演的百老汇舞台剧《藩篱》搬上大银幕,华盛顿将任该片导演及主演,曾与他一起合作原舞台剧的维奥拉·戴维斯已确定加盟。原剧由奥古斯特·威尔逊创作,曾获托尼奖及普利策奖。故事围绕曾是一度有着光明未来的棒球运动员、如今却成了匹兹堡环卫工的特洛伊展开。


◎获奖情况


  第74届金球奖  (2017)

  电影类 剧情片最佳男主角(提名) 丹泽尔·华盛顿

  电影类 最佳女配角(提名) 维奥拉·戴维斯


  第23届美国演员工会奖  (2017)

  电影奖 最佳男主角(提名) 丹泽尔·华盛顿

  电影奖 最佳女配角(提名) 维奥拉·戴维斯

  电影奖 最佳群像(提名)


  第22届美国评论家选择电影奖  (2016)

  最佳影片(提名)

  最佳导演(提名) 丹泽尔·华盛顿

  最佳男主角(提名) 丹泽尔·华盛顿

  最佳女配角 维奥拉·戴维斯

  最佳群像表演(提名)

  最佳改编剧本(提名) 奥古斯特·威尔逊


  第41届美国电影学会奖  (2016)

  年度佳片


  第15届华盛顿影评人协会奖  (2016)

  最佳男主角(提名) 丹泽尔·华盛顿

  最佳女配角 维奥拉·戴维斯

  最佳改编剧本(提名) 奥古斯特·威尔逊

  最佳群戏(提名)

Video
ID                                       : 0
Format                                   : MPEG-4 Visual
Format profile                           : Advanced [email protected]
Format settings, BVOP                    : 2
Format settings, QPel                    : No
Format settings, GMC                     : No warppoints
Format settings, Matrix                  : Default (H.263)
Codec ID                                 : DIVX
Codec ID/Info                            : Project Mayo
Codec ID/Hint                            : DivX 4
Duration                                 : 2h 18mn
Bit rate                                 : 1 697 Kbps
Width                                    : 720 pixels
Height                                   : 304 pixels
Display aspect ratio                     : 2.35:1
Frame rate                               : 29.970 (30000/1001) fps
Color space                              : YUV
Chroma subsampling                       : 4:2:0
Bit depth                                : 8 bits
Scan type                                : Progressive
Compression mode                         : Lossy
Bits/(Pixel*Frame)                       : 0.259
Stream size                              : 1.65 GiB (79%)
Writing library                          : XviD 64

Audio
ID                                       : 1
Format                                   : AC-3
Format/Info                              : Audio Coding 3
Mode extension                           : CM (complete main)
Format settings, Endianness              : Big
Codec ID                                 : 2000
Duration                                 : 2h 18mn
Bit rate mode                            : Constant
Bit rate                                 : 448 Kbps
Channel(s)                               : 6 channels
Channel positions                        : Front: L C R, Side: L R, LFE
Sampling rate                            : 48.0 KHz
Frame rate                               : 31.250 fps (1536 spf)
Compression mode                         : Lossy
Stream size                              : 445 MiB (21%)
Alignment                                : Aligned on interleaves
Interleave, duration                     : 32 ms (0.96 video frame)




1 个附件 售价 大小 下载 时间

Fences.2016.DVDSCR.XviD.AC3-UnKnOwN.torrent 0 金币 42.38K 5083 次 6月前

#1楼
发帖时间:2017-01-03 11:33:51   |   回复数:6
ALLEN820213
超凡入圣№
感谢楼主分享!!!
6月前 #2楼
911degrees
一代宗师
非常感谢,谢谢分享
6月前 #3楼
yangbo83222179
一代宗师
谢谢楼主分享,支持一下
6月前 #4楼
blue23
超凡入圣№
感谢楼主分享
6月前 #5楼
SunLin
武林高手
人生如戏,戏如人生。。。。。。
6月前 #6楼
zhao_paul
一代宗师
多谢楼主分享好影片,辛苦了!
4月前 #7楼
游客组