zsymoon
小有名气

[mp3音乐专辑] [亲传115]迈克尔·杰克逊Hold My Hand HD 1080P 174M AVI

-->
本帖最后由 zsymoon 于 2010-12-21 20:04 编辑



I:\MJ\FINISHED\2010 Hold My Hand - Michael Jackson ft. Akon.avi
   General
      Complete name : I:\MJ\FINISHED\2010 Hold My Hand - Michael Jackson ft. Akon.avi
      Format : AVI
      Format/Info : Audio Video Interleave
      File size : 174 MiB
      Duration : 3mn 43s
      Overall bit rate : 6 548 Kbps
      Writing application : MEncoder SVN-r30881(20100311-gcc4.3.3)
      Writing library : MPlayer
   Video #0
      ID : 0
      Format : MPEG-4 Visual
      Format profile : AdvancedSimple@L5
      Format settings, BVOP : Yes
      Format settings, QPel : No
      Format settings, GMC : No warppoints
      Format settings, Matrix : Default (H.263)
      Codec ID : XVID
      Codec ID/Hint : XviD
      Duration : 3mn 42s
      Bit rate : 6 408 Kbps
      Width : 1 920 pixels
      Height : 1 080 pixels
      Display aspect ratio : 16:9
      Frame rate : 23.976 fps
      Resolution : 24 bits
      Colorimetry : 4:2:0
      Scan type : Progressive
      Bits/(Pixel*Frame) : 0.129
      Stream size : 170 MiB (98%)
      Writing library : XviD 1.2.1 (UTC 2008-12-04)
   Audio #1
      ID : 1
      Format : MPEG Audio
      Format version : Version 1
      Format profile : Layer 3
      Codec ID : 55
      Codec ID/Hint : MP3
      Duration : 3mn 43s
      Bit rate mode : Constant
      Bit rate : 128 Kbps
      Channel(s) : 2 channels
      Sampling rate : 44.1 KHz
      Resolution : 16 bits
      Video delay : 42ms
      Stream size : 3.40 MiB (2%)
      Alignment : Aligned on interleaves
      Interleave, duration : 26 ms (0.63 video frame)
      Interleave, preload duration : 522 ms

http://u.115.com/file/t8fe1ef280#
MJ_ft._Akon_–_Hold_My_Hand_–_HD_1080P_174M.rar

http://shop34459538.taobao.com/


#1楼
发帖时间:2010-12-21 19:59:27   |   回复数:29
游客组