mario5635
小有名气

[更早] [欧美] [摇滚] [音乐MV/LIVE] [迈克·杰克逊-鬼怪.Michael·Jackson-Ghosts.HD.DiaosMan][1080P/mp4][1.88G]

-->

整剧均由DiaosMan个人用蓝光原盘+硬字幕x.264. mp4格式压制。为了大家更好的观赏视频DiaosMan承若绝不在字幕和视频中添加任何与影片无关的信息和水印。请大家转载时请在著名DiaosMan压制。

DiaosMan个人是对电影的爱好,希望带给大家好的东西,所以利用业余时间压制,发布时间相对较慢,但基本保证每星期发有两到三部影片或剧集。

DiaosMan压制所用视频和字幕均来自网络,如侵犯到任何个人或公司团体组织权益请及时与我留言,我将第一时间删除。


 

◎片  名 -  鬼怪

◎译  名 -  Ghosts

◎年  代 -  1996

◎国  家 -  美国

◎语  言 -  英语

◎IMDb链接 - http://www.imdb.com/title/tt0119194/

◎片  长 -  39分钟

◎导  演 -  斯坦·温斯顿

◎主  演 -  迈克·杰克逊

◎简  介 - 《Ghosts》 Too bad Is it scary》本身并不是组合在一起的歌,单独听哪一首也不是绝对吸引人,MJ是这个世界上最精明,最懂得如何宣传的人,他于1996年拍摄了一部伟大的狂想音乐录影带,总共39分钟长。 

 

◎编码参数 -  

General

Complete name                    : 迈克·杰克逊-鬼怪.Michael·Jackson-Ghosts.HD.1080p.x264.AAC.中英字幕-DiaosMan.mp4

Format                           : MPEG-4

Format profile                   : Base Media

Codec ID                         : isom

File size                        : 1.88 GiB

Duration                         : 39mn 39s

Overall bit rate                 : 6 774 Kbps

Encoded date                     : UTC 2016-04-09 07:32:50

Tagged date                      : UTC 2016-04-09 07:32:50

Writing application              : FormatFactory : www.pcfreetime.com

 

Video

ID                               : 1

Format                           : AVC

Format/Info                      : Advanced Video Codec

Format profile                   : [email protected]

Format settings, CABAC           : No

Format settings, ReFrames        : 1 frame

Codec ID                         : avc1

Codec ID/Info                    : Advanced Video Coding

Duration                         : 39mn 39s

Bit rate mode                    : Variable

Bit rate                         : 6 500 Kbps

Maximum bit rate                 : 14.8 Mbps

Width                            : 1 920 pixels

Height                           : 1 080 pixels

Display aspect ratio             : 16:9

Frame rate mode                  : Constant

Frame rate                       : 30.000 fps

Color space                      : YUV

Chroma subsampling               : 4:2:0

Bit depth                        : 8 bits

Scan type                        : Progressive

Bits/(Pixel*Frame)               : 0.104

Stream size                      : 1.81 GiB (96%)

Writing library                  : x264 core 116 r2019 9cc407d

Encoding settings                : cabac=0 / ref=1 / deblock=1:0:0 / analyse=0x3:0x113 / me=hex / subme=7 / psy=1 / psy_rd=1.00:0.00 / mixed_ref=0 / me_range=16 / chroma_me=1 / trellis=1 / 8x8dct=1 / cqm=0 / deadzone=21,11 / fast_pskip=1 / chroma_qp_offset=-2 / threads=6 / sliced_threads=0 / nr=0 / decimate=1 / interlaced=0 / bluray_compat=0 / constrained_intra=0 / bframes=0 / weightp=2 / keyint=250 / keyint_min=25 / scenecut=40 / intra_refresh=0 / rc_lookahead=40 / rc=abr / mbtree=1 / bitrate=6500 / ratetol=1.0 / qcomp=0.60 / qpmin=0 / qpmax=69 / qpstep=4 / ip_ratio=1.40 / aq=1:1.00

Encoded date                     : UTC 2016-04-09 07:32:50

Tagged date                      : UTC 2016-04-09 07:33:14

 

Audio

ID                               : 2

Format                           : AAC

Format/Info                      : Advanced Audio Codec

Format profile                   : LC

Codec ID                         : 40

Duration                         : 39mn 39s

Bit rate mode                    : Variable

Bit rate                         : 237 Kbps

Maximum bit rate                 : 286 Kbps

Channel(s)                       : 2 channels

Channel positions                : Front: L R

Sampling rate                    : 48.0 KHz

Compression mode                 : Lossy

Stream size                      : 67.2 MiB (3%)

Encoded date                     : UTC 2016-04-09 07:33:12

Tagged date                      : UTC 2016-04-09 07:33:14

 

 

◎视频截图


 

 

 

(下载后,扩展名为.mp4D改成.mp4即可)

百度链接:http://pan.baidu.com/s/1hsPgAry 密码:p3to

360连接:上传中ing……

乐视云连接:上传中ing……

(网页下载有速度大小限制,建议用乐视云windows版下载,下载地址:http://pan.baidu.com/s/1nuSdCE1



1 条评分记录 操作 积分 金币 点评 时间

wujason168 评分 +4 +4 2016-4-11

#1楼
发帖时间:2016-04-10 00:14:49   |   回复数:15
wen1270
武林高手
经典 百度已保存 哈哈!
2016-4-10 #2楼
diy2000cl
武林高手
谢谢。手里只有DVD版本的。十分感谢
2016-4-10 #3楼
rockhu
无名小卒
谢谢分享
2016-4-10 #4楼
chulps
一代宗师
good good good ... Thanks a lot ! 感谢楼主 ! 感谢 !
2016-4-10 #5楼
nameismin
武林高手
这个有蓝光原盘?强烈求蓝光原盘
2016-4-10 #6楼
sfs0831
小有名气
以前买过盘被借走找不回来了 这里终于又找到了 多谢
2016-4-12 #7楼
jnc26
武林高手
当时这电影式的奇幻MV震撼全球啊
2016-4-13 #8楼
jnc26
武林高手
PS: 楼猪的头像是哪位明星或模特啊?
2016-4-13 #9楼
mario5635
小有名气
引用 jnc26:

PS: 楼猪的头像是哪位明星或模特啊?


袁姗姗
2016-4-13 #10楼
jnc26
武林高手
引用 mario5635:


袁姗姗


嗯,不错

2016-4-15 #11楼
lqs10168
一代宗师
感谢楼主分享,辛苦!!!
2016-4-17 #12楼
起司猫_54
小有名气

感谢楼主分享!居然是1080p!辛苦!!!对比了下原来收藏的VHS Rip版本,文件大小2.15G,楼主发的又清晰体积又小!!!

2016-4-22 #13楼
ztwbj
武林高手
已经没拉
2016-7-14 #14楼
hbf0713
小有名气
已经挂了。。。
2016-9-9 #15楼
ghostking8
武林高手
已经挂了。。
2016-10-7 #16楼
游客组