657441429
无名小卒

[更早] [港台] [原声] [APE/FLAC/WAV等无损] 原声大碟.-.[东方不败-林青霞(电影音乐纪实)].专辑.(APE)

-->

TRACK 01 AUDIO

    TITLE "東方不敗就在附近"

    PERFORMER "現場收音"

    INDEX 00 00:00:00

    INDEX 01 00:00:32

  TRACK 02 AUDIO

    TITLE "主題曲-只記今朝笑(粵語)"

    PERFORMER "呂珊主唱"

    INDEX 00 00:42:50

    INDEX 01 00:44:32

  TRACK 03 AUDIO

    TITLE "退隱"

    PERFORMER "現場收音"

    INDEX 00 03:45:50

    INDEX 01 03:47:57

  TRACK 04 AUDIO

    TITLE "斷弦"

    PERFORMER "滄海一聲笑斷弦版.粵語"

    INDEX 00 05:31:37

    INDEX 01 05:34:55

  TRACK 05 AUDIO

    TITLE "原來是你 "

    PERFORMER "現場收音"

    INDEX 00 06:44:21

    INDEX 01 06:48:00

  TRACK 06 AUDIO

    TITLE "伏擊"

    PERFORMER "配乐"

    INDEX 00 07:30:30

    INDEX 01 07:32:02

  TRACK 07 AUDIO

    TITLE "邂逅"

    PERFORMER "配乐"

    INDEX 00 10:24:70

    INDEX 01 10:27:55

  TRACK 08 AUDIO

    TITLE "燒寶典"

    PERFORMER "現場收音"

    INDEX 00 12:23:65

    INDEX 01 12:27:25

  TRACK 09 AUDIO

    TITLE "濃情"

    PERFORMER "配乐"

    INDEX 01 12:59:37

  TRACK 10 AUDIO

    TITLE "天地醉"

    PERFORMER "音樂版"

    INDEX 00 14:08:17

    INDEX 01 14:12:20

  TRACK 11 AUDIO

    TITLE "望青霞"

    PERFORMER "現場收音"

    INDEX 00 17:56:27

    INDEX 01 18:01:32

  TRACK 12 AUDIO

    TITLE "天地醉(國語)"

    PERFORMER "林青霞主唱"

    INDEX 00 18:54:55

    INDEX 01 18:56:42

  TRACK 13 AUDIO

    TITLE "告別"

    PERFORMER "現場收音"

    INDEX 00 22:40:65

    INDEX 01 22:43:10

  TRACK 14 AUDIO

    TITLE "比劍"

    PERFORMER "配乐"

    INDEX 01 23:25:37

  TRACK 15 AUDIO

    TITLE "主題曲-只記今朝笑(國語)"

    PERFORMER "林青霞主唱"

    INDEX 00 24:49:35

    INDEX 01 24:51:22

  TRACK 16 AUDIO

    TITLE "圍攻"

    PERFORMER "現場收音"

    INDEX 00 27:53:10

    INDEX 01 27:55:02

  TRACK 17 AUDIO

    TITLE "傾心"

    PERFORMER "配乐"

    INDEX 00 28:22:35

    INDEX 01 28:24:32

  TRACK 18 AUDIO

    TITLE "曲諧"

    PERFORMER "配乐"

    INDEX 00 30:50:20

    INDEX 01 30:52:20

  TRACK 19 AUDIO

    TITLE "斷弦"

    PERFORMER "滄海一聲笑斷弦版.國語"

    INDEX 00 31:37:25

    INDEX 01 31:39:00

  TRACK 20 AUDIO

    TITLE "只記今朝笑"

    PERFORMER "音樂版"

    INDEX 00 32:48:32

    INDEX 01 32:50:50



1 个附件 售价 大小 下载 时间

原声大碟.-.[东方不败-林青霞(电影音乐纪实)].专辑.(APE).rar 1 金币 238B 2439 次 3月前

#1楼
发帖时间:2018-02-04 21:48:12   |   回复数:3
liyouchai
超凡入圣№
谢谢楼主分享资源
3月前 #2楼
robin785
武林高手
谢谢楼主
3月前 #3楼
911degrees
超凡入圣№
非常感谢,谢谢分享
3月前 #4楼
游客组