657441429
无名小卒

[更早] [港台] [原声] [APE/FLAC/WAV等无损] 原声大碟.-.[风云雄霸天下.-.The.Storm.Riders].专辑.(APE)

-->


PERFORMER "Various"

TITLE "风云 (电影原声大碟)"

REM GENRE Soundtrack

REM DATE 1998

REM DISCID 040BE916

REM COMMENT "ExactAudioCopy v0.99pb1"

FILE "1998_郑伊健_[风云-雄霸天下]电影原声大碟.ape" WAVE

  TRACK 01 AUDIO

    TITLE "风云"

    PERFORMER "郑伊健"

    REM GENRE Soundtrack

    REM DATE 1998

    INDEX 01 00:00:00

  TRACK 02 AUDIO

    TITLE "一对对"

    PERFORMER "郑伊健"

    REM GENRE Soundtrack

    REM DATE 1998

    INDEX 00 02:58:30

    INDEX 01 02:58:37

  TRACK 03 AUDIO

    TITLE "雄霸天下"

    PERFORMER "陈光荣"

    REM GENRE Soundtrack

    REM DATE 1998

    INDEX 00 05:32:29

    INDEX 01 05:32:37

  TRACK 04 AUDIO

    TITLE "天下会"

    PERFORMER "陈光荣"

    REM GENRE Soundtrack

    REM DATE 1998

    INDEX 00 08:42:34

    INDEX 01 08:42:37

  TRACK 05 AUDIO

    TITLE "父与子"

    PERFORMER "陈光荣"

    REM GENRE Soundtrack

    REM DATE 1998

    INDEX 01 10:21:37

  TRACK 06 AUDIO

    TITLE "竹林之战"

    PERFORMER "陈光荣"

    REM GENRE Soundtrack

    REM DATE 1998

    INDEX 00 12:02:34

    INDEX 01 12:02:37

  TRACK 07 AUDIO

    TITLE "洛山大佛"

    PERFORMER "陈光荣"

    REM GENRE Soundtrack

    REM DATE 1998

    INDEX 01 15:05:25

  TRACK 08 AUDIO

    TITLE "血洗步家庄"

    PERFORMER "陈光荣"

    REM GENRE Soundtrack

    REM DATE 1998

    INDEX 01 16:41:00

  TRACK 09 AUDIO

    TITLE "一对对"

    PERFORMER "儿童合唱版"

    REM GENRE Soundtrack

    REM DATE 1998

    INDEX 01 18:23:50

  TRACK 10 AUDIO

    TITLE "云雨"

    PERFORMER "陈光荣"

    REM GENRE Soundtrack

    REM DATE 1998

    INDEX 01 20:04:37

  TRACK 11 AUDIO

    TITLE "无双城"

    PERFORMER "陈光荣"

    REM GENRE Soundtrack

    REM DATE 1998

    INDEX 00 21:17:72

    INDEX 01 21:18:00

  TRACK 12 AUDIO

    TITLE "麒麟臂"

    PERFORMER "陈光荣"

    REM GENRE Soundtrack

    REM DATE 1998

    INDEX 01 22:31:00

  TRACK 13 AUDIO

    TITLE "念"

    PERFORMER "陈光荣"

    REM GENRE Soundtrack

    REM DATE 1998

    INDEX 01 25:16:00

  TRACK 14 AUDIO

    TITLE "一对对 (独对)"

    PERFORMER "郑伊健"

    REM GENRE Soundtrack

    REM DATE 1998

    INDEX 00 27:31:08

    INDEX 01 27:31:12

  TRACK 15 AUDIO

    TITLE "血战火麒麟"

    PERFORMER "陈光荣"

    REM GENRE Soundtrack

    REM DATE 1998

    INDEX 00 28:38:72

    INDEX 01 28:39:00

  TRACK 16 AUDIO

    TITLE "绝世好剑"

    PERFORMER "陈光荣"

    REM GENRE Soundtrack

    REM DATE 1998

    INDEX 01 37:01:25

  TRACK 17 AUDIO

    TITLE "成也风云"

    PERFORMER "陈光荣"

    REM GENRE Soundtrack

    REM DATE 1998

    INDEX 01 38:49:25

  TRACK 18 AUDIO

    TITLE "败也风云"

    PERFORMER "陈光荣"

    REM GENRE Soundtrack

    REM DATE 1998

    INDEX 01 41:31:00

  TRACK 19 AUDIO

    TITLE "凡事太尽,缘份誓必早尽"

    PERFORMER "陈光荣"

    REM GENRE Soundtrack

    REM DATE 1998

    INDEX 01 43:10:12

  TRACK 20 AUDIO

    TITLE "虫儿飞"

    PERFORMER "郑伊健"

    REM GENRE Soundtrack

    REM DATE 1998

    INDEX 01 44:29:25

  TRACK 21 AUDIO

    TITLE "风云 (国语)"

    PERFORMER "郑伊健"

    REM GENRE Soundtrack

    REM DATE 1998

    INDEX 01 46:09:50

  TRACK 22 AUDIO

    TITLE "虫儿飞"

    PERFORMER "儿童合唱版"

    REM GENRE Soundtrack

    REM DATE 1998

    INDEX 01 49:08:00



1 个附件 售价 大小 下载 时间

原声大碟.-.[风云雄霸天下.-.The.Storm.Riders].专辑.(APE).rar 1 金币 244B 1386 次 6月前

#1楼
发帖时间:2018-02-04 22:05:01   |   回复数:3
911degrees
隐世仙人♂
非常感谢,谢谢分享
6月前 #2楼
jokingcheung
一代宗师
谢谢分享
6月前 #3楼
QQ843333414
无名小卒


各种AV 自拍  页游博彩游戏  →  点此免费试玩注册送88彩金

各种AV 自拍  页游博彩游戏  →  点此免费试玩注册送88彩金

各种AV 自拍  页游博彩游戏  →  点此免费试玩注册送88彩金

各种AV 自拍  页游博彩游戏  →  点此免费试玩注册送88彩金


专业办理网贷,信用卡等,无视黑户,花呗,京东白条,任性付套现,群号:763190751








2月前 #4楼
游客组