Boom邦
小有名气

[更早] [欧美] [乡村] [APE/FLAC/WAV等无损] 泰米•温妮特 Tammy Wynette-Without.Walls.1994.flac 247.93MB

-->



      Tammy生于194255日,她的父亲也是位音乐家,他在Tammy才八个月的时候就去世了。Tammy在密西西比她祖父母的家里长大,而她的母亲则在亚拉巴马的部队里工作。从孩提时起,Tammy就自学了多种乐器,这些乐器都是她的父亲留下的。从七岁起,她就和家里的一些亲戚一起在棉花田里干活了。父亲留下的钢琴,吉他,还有他的女儿会成为音乐家的梦想成了Tammy从沉闷的日常生活中逃离的唯一手段。她花了很多时间在棉花田里想象在上千人面前演唱。直到多年以后,Tammy仍在房间里保留了一个装有棉花的水晶碗,以纪念她困苦的过去。十几岁时,她搬去和母亲住在一起。十七岁时,她结婚了。她嫁给了一个建筑工人,他失业的时间总是多于工作的时间。这个年轻的新娘发现生活比她所了解的还要艰难。她成了一位美容美发师。这场三年的婚姻不长,却给她留下了三个孩子。在第三个孩子出生时,他们离婚了。 
    Tammy
的第三个孩子得了脊髓脑膜炎,这意味着Tammy要负担大量的医药费。为了多挣点钱,她开始晚上在俱乐部里演唱。1965年,她参加了一个电视节目乡村男孩埃迪秀,由于这个节目,她有机会参与了Porter Wagoner的节目。第二年,她做了一个勇敢的决定,搬到了纳什维尔。这时的她没有工作,没有地方住,还有三个孩子要她抚养。她参加了很多厂牌的试唱,直到Epic公司的质朴人Billy Sherrill签下了她,并把她的名字改为Tammy 

      Wynette
的第一首单曲《Apartment #99号公寓)》,发行于1966年并迅速上榜,差点冲进前四十名。随后的《Your Good Girl’s Gonna Go Bad(你的好姑娘变坏了)》更加成功,获得了第三。由此开始,她的歌曲一直保持在前十名直至七十年代末,直到她有三首单曲未能进入前十为止。1967年,她的《My Elusive Dreams(我奇异的梦)》成为她的首个冠军单曲,同年末她又推出了《I Don’t Wanna Play House(我不想扮家家)》。 
  自19681969年间,Wynette共有5首第一名歌曲——Take Me To Your World(带我进入你的世界)》、《D-I-V-O-R-C-E(离-婚)》、《Stand By Your Man(在你的男人身边)》(以上为1968年作品)以及《Singing My Song(唱我自己的歌)》、《The Ways to Love a Man(爱一个男人的方式)》(以上为1969年作品)。1968年,她开始和George Jones走到了一起。他们的关系真可谓暴风骤雨。从1971年起,他们开始共同录制了一系列对唱歌曲——第一首就是冠军歌曲《Take Me(带上我)》——这些歌曲和他们的独唱歌曲一样受欢迎。然而,他们的婚姻并不容易,终于他们在1975年离婚了。之后的二十年里他们仍有零星合作。 
   短短的四年里,Tammy共有十一张专辑成了第一名。她自己也获得了两次格莱美奖和四次CMA“年度女歌手奖。从对音乐商业一无所知,到卖出超过三千万张唱片,收入超过一亿,她成了乡村音乐界最容易辨认的声音。歌曲《Stand By Your man(在你的男人身边)》的发行使她成了第一位唱片销量过百万张的乡村女歌手。 
   整个七十年代,Wynette都在贡献第一名歌曲。在八十年代早期,她的事业开始下滑。尽管她仍有热门单曲,但是她不再能象过去那样轻易进入前十了。这种情况一直从八十年代持续到九十年代早期。当她不再象在过去那样拥有众多热门歌曲的时候,她仍然是令人尊敬的明星并在演唱会上大受欢迎和关注。 
   进入八十年代,她开始被健康问题困扰,包括胆管发炎等。她在九十年代中期接受了几次手术。但是,她仍然和Dolly Parton以及Loretta Lynn一起录制了杰出的专辑《Honky Tonk Angels》(《酒吧天使》)。199846日,Tammy Wynatte在睡梦中逝世。3天后,歌迷和纳什维尔的音乐工作者为她举行了盛大的电视直播纪念活动,那一年晚些时候,她被介绍入乡村名人堂


   无疑,这是一张非常难得的CD专辑。1994年初是本BoomVincent疯狂购买打口碟的开端,本人在1995年就落到了如是完美原盘,很长一段时间沉浸在这张唱片之中。这张唱片也带动了很多同事加入欧美‘靡靡之音’的队伍中来。不久,此CD不翼而飞,遗憾非常,后来各种补也没有补到这张CD。希望落到这枚CD的老同事还在喜欢着。

   本CD难得的原因还在于,19940728日发行的‘without walls’相比20090901日的再版多一首Sting的‘every breathyou take’,即便得到09年版本的‘without walls’没有合唱的‘every breath you take’那也是绝对遗憾再遗憾。

   感谢深圳最早售卖海关查没盒带和唱片的裁缝师陈涵晚先生!感谢老同事万胜义哥哥带领着穿行于深巷小院阁楼得以落到大把大把的好唱片!



专辑曲目:
01 If It's The Last Thing I Do
02 A Woman's Needs (with Elton John)
03 Every Breath You Take (with Sting)
04 If You Were To Wake Up (with Lyle Lovett)
05 Glass Houses (with Joe Diffie)
06 Girl Thang (with Wynonna)
07 This Love (with Cliff Richard)
08 I Second That Emotion (with Smokey Robinson)
09 All I Am To You (with Aaron Neville)
10 What Do They Know


Exact Audio Copy V1.0 beta 3 from 29. August 2011


EAC extraction logfile from 8. April 2013, 15:14


Tammy Wynette / Without Walls


Used drive  : PLEXTOR DVDR   PX-L890SA   Adapter: 5  ID: 0


Read mode               : Secure

Utilize accurate stream : Yes

Defeat audio cache      : Yes

Make use of C2 pointers : No


Read offset correction                      : 6

Overread into Lead-In and Lead-Out          : No

Fill up missing offset samples with silence : Yes

Delete leading and trailing silent blocks   : No

Null samples used in CRC calculations       : Yes

Used interface                              : Native Win32 interface for Win NT & 2000

Gap handling                                : Appended to previous track


Used output format              : User Defined Encoder

Selected bitrate                : 1024 kBit/s

Quality                         : High

Add ID3 tag                     : No

Command line compressor         : C:\Program Files (x86)\Exact Audio Copy\FLAC\FLAC.EXE

Additional command line options : -8 -V -T "ARTIST=%artist%" -T "TITLE=%title%" -T "ALBUM=%albumtitle%" -T "DATE=%year%" -T "TRACKNUMBER=%tracknr%" -T "GENRE=%genre%" -T "COMMENT=%comment%" -T "BAND=%albuminterpret%" -T "ALBUMARTIST=%albuminterpret%" -T "COMPOSER=%composer%" %haslyrics%--tag-from-file=LYRICS="%lyricsfile%"%haslyrics% -T "DISCNUMBER=%cdnumber%" -T "TOTALDISCS=%totalcds%" -T "TOTALTRACKS=%numtracks%" %hascover%--picture="%coverfile%"%hascover% %source% -o %dest%



TOC of the extracted CD


     Track |   Start  |  Length  | Start sector | End sector 

    ---------------------------------------------------------

        1  |  0:00.00 |  3:57.35 |         0    |    17809   

        2  |  3:57.35 |  5:16.57 |     17810    |    41566   

        3  |  9:14.17 |  4:15.68 |     41567    |    60759   

        4  | 13:30.10 |  4:23.65 |     60760    |    80549   

        5  | 17:54.00 |  3:35.27 |     80550    |    96701   

        6  | 21:29.27 |  3:04.25 |     96702    |   110526   

        7  | 24:33.52 |  4:00.63 |    110527    |   128589   

        8  | 28:34.40 |  3:05.57 |    128590    |   142521   

        9  | 31:40.22 |  3:42.05 |    142522    |   159176   

       10  | 35:22.27 |  3:17.60 |    159177    |   174011   



Track  1


     Filename D:\Tammy Wynette-Without.Walls.1994.flac\01 If It's The Last Thing I Do.wav


     Pre-gap length  0:00:02.00


     Peak level 96.7 %

     Extraction speed 1.8 X

     Track quality 100.0 %

     Test CRC 347073D4

     Copy CRC 347073D4

     Track not present in AccurateRip database

     Copy OK


Track  2


     Filename D:\Tammy Wynette-Without.Walls.1994.flac\02 A Woman's Needs (with Elton John).wav


     Peak level 97.7 %

     Extraction speed 2.1 X

     Track quality 100.0 %

     Test CRC 792EA108

     Copy CRC 792EA108

     Track not present in AccurateRip database

     Copy OK


Track  3


     Filename D:\Tammy Wynette-Without.Walls.1994.flac\03 Every Breath You Take (with Sting).wav


     Peak level 100.0 %

     Extraction speed 2.3 X

     Track quality 100.0 %

     Test CRC 01026CF5

     Copy CRC 01026CF5

     Track not present in AccurateRip database

     Copy OK


Track  4


     Filename D:\Tammy Wynette-Without.Walls.1994.flac\04 If You Were To Wake Up (with Lyle Lovett).wav


     Peak level 96.7 %

     Extraction speed 2.5 X

     Track quality 100.0 %

     Test CRC D7D3FDF1

     Copy CRC D7D3FDF1

     Track not present in AccurateRip database

     Copy OK


Track  5


     Filename D:\Tammy Wynette-Without.Walls.1994.flac\05 Glass Houses (with Joe Diffie).wav


     Peak level 97.7 %

     Extraction speed 2.5 X

     Track quality 100.0 %

     Test CRC 6A191BF9

     Copy CRC 6A191BF9

     Track not present in AccurateRip database

     Copy OK


Track  6


     Filename D:\Tammy Wynette-Without.Walls.1994.flac\06 Girl Thang (with Wynonna).wav


     Peak level 96.7 %

     Extraction speed 2.6 X

     Track quality 100.0 %

     Test CRC E95D2314

     Copy CRC E95D2314

     Track not present in AccurateRip database

     Copy OK


Track  7


     Filename D:\Tammy Wynette-Without.Walls.1994.flac\07 This Love (with Cliff Richard).wav


     Peak level 96.7 %

     Extraction speed 2.8 X

     Track quality 100.0 %

     Test CRC 793FF46F

     Copy CRC 793FF46F

     Track not present in AccurateRip database

     Copy OK


Track  8


     Filename D:\Tammy Wynette-Without.Walls.1994.flac\08 I Second That Emotion (with Smokey Robinson).wav


     Peak level 98.4 %

     Extraction speed 2.9 X

     Track quality 100.0 %

     Test CRC 452F50A1

     Copy CRC 452F50A1

     Track not present in AccurateRip database

     Copy OK


Track  9


     Filename D:\Tammy Wynette-Without.Walls.1994.flac\09 All I Am To You (with Aaron Neville).wav


     Peak level 97.7 %

     Extraction speed 2.2 X

     Track quality 99.9 %

     Test CRC 0DEE25EA

     Copy CRC 0DEE25EA

     Track not present in AccurateRip database

     Copy OK


Track 10


     Filename D:\Tammy Wynette-Without.Walls.1994.flac\10 What Do They Know.wav


     Peak level 96.7 %

     Extraction speed 3.1 X

     Track quality 100.0 %

     Test CRC 1EA2A2BC

     Copy CRC 1EA2A2BC

     Track not present in AccurateRip database

     Copy OK



None of the tracks are present in the AccurateRip database


No errors occurred


End of status report


==== Log checksum 0AA64602F9B690FCE57D3D68C091792440BB557457B2A96342F8DA2729296B73 ====

















1 个附件 售价 大小 下载 时间

泰米•温妮特 Tammy Wynette-Without.Walls.1994.flac 247.93MB.torrent 2 金币 21.25K 203 次 8月前

#1楼
发帖时间:2018-03-25 00:20:25   |   回复数:3
911degrees
隐世仙人♂
非常感谢,谢谢分享
8月前 #2楼
handsome_456
武林盟主
感谢楼主分享!!!
8月前 #3楼
valjjj
武林高手
谢谢楼主,分享好音乐!
7月前 #4楼
游客组