呆呆狐狸
超级版主

[更 早] [欧美] [打包] [动画] [BT下载][长袜子皮皮 Pippi Longstocking 第一季][全26集打包][英语英字][MKV][1080P][片源]

-->

导演: Paul Riley

编剧: Ken Sobol / John Sobol / Bob Stutt / 阿斯特丽德·林德格伦

类型: 动画

制片国家/地区: 加拿大 / 德国

语言: 英语

集数: 26

单集片长: 22分钟

长袜子皮皮的剧情简介 · · · · · ·


  《长袜子皮皮》98年动画剧


Video
ID : 1
Format : AVC
Format/Info : Advanced Video Codec
Format profile : High@L4
Format settings : CABAC / 4 Ref Frames
Format settings, CABAC : Yes
Format settings, ReFrames : 4 frames
Codec ID : V_MPEG4/ISO/AVC
Duration : 24 min 16 s
Bit rate mode : Variable
Bit rate : 5 075 kb/s
Maximum bit rate : 15.0 Mb/s
Width : 1 440 pixels
Height : 1 080 pixels
Display aspect ratio : 4:3
Frame rate mode : Constant
Frame rate : 23.976 (24000/1001) FPS
Color space : YUV
Chroma subsampling : 4:2:0
Bit depth : 8 bits
Scan type : Progressive
Bits/(Pixel*Frame) : 0.136
Stream size : 881 MiB (96%)
Default : Yes
Forced : No
Color range : Limited
Color primaries : BT.709
Transfer characteristics : BT.709
Matrix coefficients : BT.709

Audio
ID : 2
Format : E-AC-3
Format/Info : Enhanced AC-3
Commercial name : Dolby Digital Plus
Codec ID : A_EAC3
Duration : 24 min 16 s
Bit rate mode : Constant
Bit rate : 224 kb/s
Channel(s) : 2 channels
Channel layout : L R
Sampling rate : 48.0 kHz
Frame rate : 31.250 FPS (1536 SPF)
Compression mode : Lossy
Stream size : 38.9 MiB (4%)
Language : English
Service kind : Complete Main
Default : Yes
Forced : No

Text
ID : 3
Format : UTF-8
Codec ID : S_TEXT/UTF8
Codec ID/Info : UTF-8 Plain Text
Duration : 23 min 53 s
Bit rate : 57 b/s
Count of elements : 436
Stream size : 9.98 KiB (0%)
Language : English
Default : No
Forced : No



1 个附件 售价 大小 下载 时间

Pippi.Longstocking.S01.1080p.AMZN.WEBRip.DDP2.0.x264-Arian[btbtt.me].torrent 0 金币 55.05K 308 次 1月前

#1楼
发帖时间:2018-10-26 17:02:33   |   回复数:1
911degrees
隐世仙人♂
非常感谢,谢谢分享
1月前 #2楼
游客组