呆呆狐狸
超级版主

[2015] [欧美] [打包] [动画] [BT下载][仙踪迷失/迷失奥兹国 Lost in Oz 第一季][全13集打包][英语无字][MKV][720P][片源]

-->

◎译  名 仙踪迷失/迷失奥兹国

◎片  名 Lost in Oz

◎年  代 2015

◎产  地 英国/加拿大 Canada/美国

◎类  别 动画/家庭

◎语  言 英语

◎上映日期 2015-06-26

◎IMDb评分  7.8/10 from 195 users

◎IMDb链接  http://www.imdb.com/title/tt4677846/

◎BT之家整理 http://www.btbtt.me/

◎片  长 24分钟

◎主  演 Landry Bender

      阿什利·博彻 Ashley Boettcher

      Nika Futterman


◎简  介


  故事讲述了12岁的女孩桃乐丝在家中无意发现了妈妈的神秘记事本,结果在记事本的魔力带动下,她和狗狗Toto来到了神秘的奥兹国翡翠城;为了寻找回家的道路,桃乐丝和狗狗开始了奥兹国探险之旅。


Video
ID : 1
Format : AVC
Format/Info : Advanced Video Codec
Format profile : High@L3.1
Format settings : CABAC / 5 Ref Frames
Format settings, CABAC : Yes
Format settings, ReFrames : 5 frames
Codec ID : V_MPEG4/ISO/AVC
Duration : 23 min 30 s
Bit rate mode : Variable
Bit rate : 3 063 kb/s
Maximum bit rate : 4 500 kb/s
Width : 1 280 pixels
Height : 720 pixels
Display aspect ratio : 16:9
Frame rate mode : Constant
Frame rate : 23.976 (24000/1001) FPS
Color space : YUV
Chroma subsampling : 4:2:0
Bit depth : 8 bits
Scan type : Progressive
Bits/(Pixel*Frame) : 0.139
Stream size : 515 MiB (83%)
Default : Yes
Forced : No
Color range : Limited
Color primaries : BT.709
Transfer characteristics : BT.709
Matrix coefficients : BT.709

Audio
ID : 2
Format : E-AC-3
Format/Info : Enhanced AC-3
Commercial name : Dolby Digital Plus
Codec ID : A_EAC3
Duration : 23 min 30 s
Bit rate mode : Constant
Bit rate : 640 kb/s
Channel(s) : 6 channels
Channel layout : L R C LFE Ls Rs
Sampling rate : 48.0 kHz
Frame rate : 31.250 FPS (1536 SPF)
Compression mode : Lossy
Stream size : 108 MiB (17%)
Language : English
Service kind : Complete Main
Default : Yes
Forced : No

Text
ID : 3
Format : UTF-8
Codec ID : S_TEXT/UTF8
Codec ID/Info : UTF-8 Plain Text
Duration : 22 min 44 s
Bit rate : 69 b/s
Count of elements : 456
Stream size : 11.5 KiB (0%)
Language : English
Default : No
Forced : No

Menu
00:00:00.000 : en:Amazon Originals
00:00:05.000 : en:Previously On
00:00:35.000 : en:Title Sequence
00:00:49.000 : en:Dorothy meets Scarecrow while waiting for Glinda
00:07:45.000 : en:Scarecrow leads Dorothy to Glinda\'s study
00:15:37.000 : en:Dorothy calls on her new friends for help
00:22:51.000 : en:End Credits




1 个附件 售价 大小 下载 时间

Lost.in.Oz.S01.720p.AMZN.WEBRip.DDP5.1.x264-QOQ[btbtt.me].torrent 0 金币 69.18K 168 次 6天前

#1楼
发帖时间:2018-11-09 20:41:07   |   回复数:1
911degrees
隐世仙人♂
非常感谢,谢谢分享
6天前 #2楼
游客组