呆呆狐狸
超级版主

[更 早] [欧美] [打包] [动画] [BT下载][布偶奇遇记 Fraggle Rock 第二季][全24集打包][英语英字][BD-MKV][720P/1080P][片源]

-->



◎译  名 布偶奇遇记 第一季 / Fraggle Rock with Jim Henson's Muppets / Jim Henson's Fraggle Rock / 布偶也摇滚

◎片  名 Fraggle Rock Season 1

◎年  代 1983

◎产  地 加拿大 / 丹麦 / 挪威 / 英国 / 美国

◎类  别 喜剧 / 动画 / 冒险

◎语  言 丹麦语 / 挪威语 / 英语

◎上映日期 1983-01-10(美国)

◎IMDb评分 7.9/10 from 5746 users

◎IMDb链接 http://www.imdb.com/title/tt0085017

◎豆瓣评分 7.6/10 from 31 users

◎豆瓣链接 https://movie.douban.com/subject/2153532/

◎集  数 24

◎片  长 30分钟

◎导  演 George Bloomfield / 吉姆·汉森 Jim Henson

◎编  剧 吉姆·汉森 Jim Henson / Jerry Juhl / Jocelyn Stevenson

◎主  演 Gerard Parkes

      Steve Whitmire

      Dave Goelz

      Terry Angus

      Jerry Nelson

      Karen Prell



◎标  签 童年 | 童年回忆 | 动画 | comedy | SonychenReviews | 儿童 | tvseries | muppet


◎简  介  


  Doc and his dog Sprocket have a hole in their wall, behind which live little furry creatures known as Fraggles in a place called Fraggle Rock. The Rock is also home to the Doozers (who are knee-high to a Fraggle) and the Gorgs (who are giants that think they rule the Rock). One gang of Fraggles (Gobo, Mokey, Wembley, Boober, and Red), under the guidance of the all-knowing Trash Heap (Marjorie), learn about each other and their neighbors and eventually befriend the Doozers, the Gorgs--and even Doc and Sprocket. Meanwhile, Gobo's Uncle Matt explores Outer Space (our world) and sends postcards to his nephew about the Silly Creatures (that's us). Written by Kathy Li



Video
ID : 1
Format : AVC
Format/Info : Advanced Video Codec
Format profile : High@L4.1
Format settings : CABAC / 5 Ref Frames
Format settings, CABAC : Yes
Format settings, ReFrames : 5 frames
Codec ID : V_MPEG4/ISO/AVC
Duration : 24 min 46 s
Bit rate : 11.1 Mb/s
Width : 1 440 pixels
Height : 1 080 pixels
Display aspect ratio : 4:3
Frame rate mode : Constant
Frame rate : 29.970 (30000/1001) FPS
Color space : YUV
Chroma subsampling : 4:2:0
Bit depth : 8 bits
Scan type : Progressive
Bits/(Pixel*Frame) : 0.238
Stream size : 1.92 GiB (88%)
Writing library : x264 core 157 r2935 545de2f
Encoding settings : cabac=1 / ref=5 / deblock=1:-3:-3 / analyse=0x3:0x133 / me=umh / subme=9 / psy=1 / psy_rd=1.00:0.00 / mixed_ref=1 / me_range=24 / chroma_me=1 / trellis=1 / 8x8dct=1 / cqm=0 / deadzone=21,11 / fast_pskip=0 / chroma_qp_offset=-2 / threads=18 / lookahead_threads=3 / sliced_threads=0 / nr=0 / decimate=1 / interlaced=0 / bluray_compat=0 / constrained_intra=0 / bframes=8 / b_pyramid=2 / b_adapt=2 / b_bias=0 / direct=3 / weightb=1 / open_gop=0 / weightp=2 / keyint=250 / keyint_min=25 / scenecut=40 / intra_refresh=0 / rc_lookahead=60 / rc=2pass / mbtree=1 / bitrate=11101 / ratetol=1.0 / qcomp=0.60 / qpmin=0 / qpmax=69 / qpstep=4 / cplxblur=20.0 / qblur=0.5 / vbv_maxrate=62500 / vbv_bufsize=78125 / nal_hrd=none / filler=0 / ip_ratio=1.40 / aq=1:1.00
Default : Yes
Forced : No

Audio
ID : 2
Format : DTS
Format/Info : Digital Theater Systems
Codec ID : A_DTS
Duration : 24 min 46 s
Bit rate mode : Constant
Bit rate : 1 509 kb/s
Channel(s) : 2 channels
Channel layout : L R
Sampling rate : 48.0 kHz
Frame rate : 93.750 FPS (512 SPF)
Bit depth : 24 bits
Compression mode : Lossy
Stream size : 267 MiB (12%)
Language : English
Default : Yes
Forced : No

Menu
00:00:00.000 : en:00:00:00.000
00:00:09.376 : en:00:00:09.376
00:02:21.641 : en:00:02:21.641
00:10:20.620 : en:00:10:20.620
00:18:46.158 : en:00:18:46.158
00:24:03.142 : en:00:24:03.142



2 个附件 售价 大小 下载 时间

Fraggle.Rock.S02.720p.BluRay.x264-SPRiNTER[btbtt.me].torrent 0 金币 71.78K 91 次 1月前

Fraggle.Rock.S02.1080p.BluRay.x264-SPRiNTER[btbtt.me].torrent 0 金币 137.48K 84 次 1月前

#1楼
发帖时间:2018-11-13 00:14:01   |   回复数:1
911degrees
隐世仙人♂
非常感谢,谢谢分享
1月前 #2楼
游客组